分享按钮

珍藏分享《Michael Jackson-BAD真棒》(sonyCD)[WAV/分轨/DBank]

专辑名称:Michael Jackson-BAD真棒(sonyCD)

歌 手:Michael Jackson

版权提供:CBS国际唱片公司

出版发行:中国唱片总公司上海公司

编 号:SCD-009

发行日期:1992

原盘抓轨:htm1

音乐格式:WAV

发 布:2011年10月5日

(纯属个人喜好和珍藏片分享试听,不喜勿下。如下载试听,请在24小时内自删。如喜欢此碟和歌手,请支持购买正版。)

专辑简介

《Bad》专辑由Epic公司发行于1987年8月。1987年8月8日,首发单曲“I Just Can't Stop Loving You”上榜。这是一首由Michael Jackson和歌手Siedah Garret合唱的情歌;它很快就在电台得到了广泛播出并登上了冠军位置。8月31日,专辑发行。这张作品成为有史以来预售量最大的专辑。当天,CBS电视台在黄金时间播出了电视特辑“Michael Jackson:魔力回归”,单曲“Bad”长达17分钟的音乐录影(由着名黑帮导演马丁·斯考塞斯 Martin Scorsese执导)也在其中首映。“Michael狂潮”再次升温,在接下来的时间里,专辑内发行的5只单曲 (“Dirty Diana”、“Man in the Mirror”、“The Way You Make Me Feel”、“Bad”、“I Just Can't Stop Loving You”) 都堂堂登上了冠军宝座,创下了前所未有的纪录。《Bad》也成为当时仅次于《Thriller》的第二最畅销专辑。而“Bad”巡演--Michael首次个人巡演也开始在世界范围内刮起了“Michael台风”。Michael从日本开始,横跨15个国家,共举行了123场演唱会,在400多万的观众面前进行了表演。当它最终于1989年1月27日在洛杉矶落幕之时,Michael已赚取了超过1.25亿美元的利润。

由于《Bad》专辑在全世界的排行榜上和销量上的惊人表现, Michael Jackson的广大的歌迷群和业界人士便在这时开始称呼他为“流行音乐之王”。公众不得不承认,由于《Bad》的成功,Michael的成就已经超过了历史上任何一名艺术家。1988年4月,Michael证明了自己不仅仅是音乐榜上的主宰。他的自传《月球漫步》在杰奎琳·肯尼迪·欧纳西斯的协作下出版,立刻便登上了英美两国畅销书榜的冠军。

Michael还以自己的音乐电影《外星战将》(Moonwalker)为音乐录影界树立了新的标准和榜样。这部94分钟的充满了音乐、舞蹈和特效的大制作,很快便在《Billboard》杂志的“音乐录影带榜”上拨得了头筹。它的销量随后超越了1983年的《Michael Jackson“Thriller”制作花絮》,成为了最畅销的家庭录影带。更值得一提的是,1989年5月发行的新集锦录影带 《Michael Jackson...The Legend Continues》又将《Moonwalker》挤落榜首,成为了当年第二最畅销的音乐录影带。

Michael也因为《Bad》专辑的持续成功而获得了众多的赞誉。那一年,老布什总统在白宫典礼上宣布Michael Jackson为“80年代最杰出艺人”。广播音乐协会 (BMI) 将第一届以他自己名字命名的“Michael Jackson成就奖”颁给了Michael。《Bad》专辑单曲“Leave Me Alone”的音乐录影获得了葛莱美最佳短篇音乐录影带奖;而Sony音乐公司(当时还名为CBS唱片公司)则宣告Michael为80年代最畅销的艺人,他在全球一共卖出了超过1.1亿张的唱片。实际上,如果再加上Motown发行的他的唱片和他在Epic旗下与兄弟们一起发行的唱片的销量,Michael Jackson在80年代末就已经售出了2.1亿张唱片。

专辑曲目

01 The Way You Make Me Feel

02 Bad

03 Liberian Girl

04 Speed Demon

05 Just Good Friends

06 Dirty Diana

07 Another Part of Me

08 Man in The Mirror

09 I Just Cant Stop Loving You

10 Smooth Criminal

[hide]http://dl.dbank.com/c054rabkbo

[hide]

解码:htm1

Exact Audio Copy V0.99 prebeta 5 from 4. May 2009

EAC 抓取日志文件从19. 九月 2011, 4:52

htm1原抓 / Michael Jackson-真棒

使用驱动器 :Optiarc DVD RW AD-7530A Adapter: 1 ID: 0

读取模式 : 保护

使用精确流 : 是

废除音频缓冲 : 是

使用 C2 指针 : 否

读取偏移校正 : 6

读取 Lead-In 和 Lead-Out : 否

用静音填充抓取中丢失偏移的采样 : 是

去除首尾静音块 : 否

在 CRC 计算中使用了空样本 : 否

已用接口 : Win NT 及 2000 本地 Win32 接口

间隙处理 : 未检出,故附加至前一音轨

所用输出格式 : 内部 WAV 函数

样本格式 : 44.100 Hz;16 Bit;立体声

被抓轨 CD 的 TOC

音轨 | 开始 | 长度 | 起始扇区 | 结尾扇区

--------------------------------------------------

1 | 0:00.00 | 5:00.72 | 0 | 22571

2 | 5:00.72 | 4:11.15 | 22572 | 41411

3 | 9:12.12 | 3:47.43 | 41412 | 58479

4 | 12:59.55 | 4:07.02 | 58480 | 77006

5 | 17:06.57 | 4:06.08 | 77007 | 95464

6 | 21:12.65 | 4:52.25 | 95465 | 117389

7 | 26:05.15 | 3:55.07 | 117390 | 135021

8 | 30:00.22 | 5:20.45 | 135022 | 159066

9 | 35:20.67 | 4:26.18 | 159067 | 179034

10 | 39:47.10 | 4:15.55 | 179035 | 198214

音轨 1

文件名 E:\Michael Jackson-真棒\Track01.wav

峰值电平 100.0 %

音轨质量 100.0 %

复制 CRC 836163E5

复制成功

音轨 2

文件名 E:\Michael Jackson-真棒\Track02.wav

峰值电平 100.0 %

音轨质量 100.0 %

复制 CRC 6EFD2047

复制成功

音轨 3

文件名 E:\Michael Jackson-真棒\Track03.wav

峰值电平 93.3 %

音轨质量 100.0 %

复制 CRC 1C5B45E6

复制成功

音轨 4

文件名 E:\Michael Jackson-真棒\Track04.wav

峰值电平 97.4 %

音轨质量 99.9 %

复制 CRC 658B6D9F

复制成功

音轨 5

文件名 E:\Michael Jackson-真棒\Track05.wav

峰值电平 91.6 %

音轨质量 99.9 %

复制 CRC 29C30ECC

复制成功

音轨 6

文件名 E:\Michael Jackson-真棒\Track06.wav

峰值电平 99.3 %

音轨质量 100.0 %

复制 CRC A0EEBA71

复制成功

音轨 7

文件名 E:\Michael Jackson-真棒\Track07.wav

峰值电平 99.7 %

音轨质量 99.9 %

复制 CRC 1D2A7F2E

复制成功

音轨 8

文件名 E:\Michael Jackson-真棒\Track08.wav

峰值电平 91.6 %

音轨质量 100.0 %

复制 CRC 92153D31

复制成功

音轨 9

文件名 E:\Michael Jackson-真棒\Track09.wav

峰值电平 88.2 %

音轨质量 100.0 %

复制 CRC 0919FBEC

复制成功

音轨 10

文件名 E:\Michael Jackson-真棒\Track10.wav

峰值电平 100.0 %

音轨质量 100.0 %

复制 CRC 5CF725EC

复制成功

没有错误发生

状态报告结尾

 
目前有0条回应
Comment
Trackback