分享按钮

珍藏分享《Michael Jackson-Dangerous危险》(sonyCD)[WAV/分轨/DBank]

专辑名称:Michael Jackson-Dangerous危险(sonyCD)

歌 手:Michael Jackson

出版发行:上海声像出版社

版号ISRC:CN-E04-94-336-00/A.J6

发行日期:1994

原盘抓轨:htm1

音乐格式:WAV

发 布:2011年10月9日

(纯属个人喜好和珍藏片分享试听,不喜勿下。如下载试听,请在24小时内自删。如喜欢此碟和歌手,请支持购买正版。)

专辑简介

1991年11月31日,迈克尔发行了新专辑《Dangerous》。Michael开始尝试80年代末兴起的New jack swing音乐,专辑的前半部是专为新式jack swing音乐而创造的,收录的歌曲有“jam”和“remember the time”。以及反映种族问题硬摇滚单曲“Black or White”是社会阴暗面成为主体的杰克逊的第一张专辑,主流音乐评价《Dangerous》应用hiphop音乐元素较晚,其音乐影响力相比《Thriller》和《Off The Wall》显得比较一般,不过《Dangerous》制作水平依然备受肯定,jam提名格莱美最佳R&B单曲,同时也取得商业上成功和一经发行独占榜首7周后,与Slash合作硬摇滚单曲“Black or White”成为继“Billie Jean”之后的杰克逊的最受欢迎的单曲。与《Thriller》和《Bad》一样,在《Dangerous》中同样产生了7首畅销单曲,除了“Black or White”,还包括“Remember the Time”、“In the Closet”和“Will You Be There”等等。在20年的时间里,这张专辑已经售出超过3200万张,是历史上最畅销的New jack swing专辑。

专辑曲目

01 Jam 困境

02 Why You Wanna Trip On Me 为什么你想要给我出难题

03 In The Closet 保密

04 She Drives Me Wild 她使我疯狂

05 Remember The Time 记得那段时光

06 Can't Let Her Get Away 不能让她离去

07 Heal The World 拯救这世界

08 Black Or White 是黑是白

09 Who Is It 他是谁

10 Give In To Me 迁就于我

11 Will You Be There 你会在那里吗

12 Keep The Faith 保持信念

13 Gone Too Soon 稍纵即逝

14 Dangerous 危险

http://dl.dbank.com/c0ceavclp6

解码:

htm1

拯救这世界欣赏

There’s a place in your heart 在你心中有一片净土,

And I know that it is love 我知道那里充满了爱。

And this place could be 这个地方会比明天更灿烂。

Much brighter than tomorrow

And if you really try 如果你真的努力过,

You’ll find there’s no need to cry 你会发觉不必哭泣。

In this place you’ll feel 在这个地方,

There’s no hurt or sorrow 你感觉不到伤痛或烦忧。

There are ways to get there 到那个地方的方法很多,

If you care enough for the living 如果你真心关怀生者,

Make a little space 营造一些空间。

Make a better place... 创造一个更美好的地方...

Heal the world 拯救这世界,

Make it a better place 让它变得更好,

For you and for me and the entire human race 为你、为我,为了全人类。

There are people dying 不断有人死去,

If you care enough for the living 如果你真心关怀生者,

Make a better place for you and for me 为你,为我,创造一个更美好的世界。

If you want to know why 如果你想知道缘由,

There’s a love that cannot lie 因为爱不会说谎。

Love is strong 爱是坚强的,

It only cares for joyful giving 爱就是心甘情愿的奉献。

If we try 若我们用心去尝试,

We shall see 我们就会明白,

In this bliss 只要心里有爱,

We cannot feel fear or dread 我们就感受不到恐惧与忧虑。

We stop existing 我们不再只是活着,

And start living 而是真正开始生活。

Then it feels that always 那爱的感觉将持续下去。

Love’s enough for us growing 爱让我们不断成长,

Make a better world 去创造一个更美好的世界,

Make a better world... 去创造一个更美好的世界...

Heal the world 拯救这世界,

Make it a better place 让它变得更好,

For you and for me and the entire human race 为你、为我,为了全人类。

There are people dying 不断有人死去,

If you care enough for the living 如果你真心关怀生者,

Make a better place for you and for me 为你,为我,创造一个更美好的世界。

And the dream we were conceived in 我们心中的梦想,

Will reveal a joyful face 让我们露出笑脸。

And the world we once believed in 我们曾经信赖的世界,

Will shine again in grace 会再次闪烁祥和的光芒。

Then why do we keep strangling life 那么我们为何仍在扼杀生命,

Wound this earth 伤害地球,

Crucify its soul 扼杀它的灵魂?

Though it’s plain to see 虽然这很容易明白,

This world is heavenly be God’s glow 这世界天生就是上帝的荣光。

We could fly so high 我们可以在高空飞翔

Let our spirits never die 让我们的精神不灭

In my heart I feel you are all my brothers 在我心中,你我都是兄弟

Create a world with no fear 共同创造一个没有恐惧的世界

Together we’ll cry happy tears 我们一起流下喜悦的泪水

See the nations turn their swords into plowshares 看到许多国家铸剑为犁

we could really get there我们需要去那里)

If you care enough for the living 如果你真心关怀生者,

Make a little space 营造一些空间。

To make a better place... 创造一个更美好的地方...

Heal the world 拯救这世界,

Make it a better place 让它变得更好,

For you and for me and the entire human race 为你、为我,为了全人类。

There are people dying 不断有人死去,

If you care enough for the living 如果你真心关怀生者,

Make a better place for you and for me 为你,为我,创造一个更美好的世界。

... ...

You and for me 为你为我

You and for me 为你为我

You and for me 为你为我

Heal the world we live in拯救我们生活的这个世界

Save it for our children为了我们的孩子而拯救它

Exact Audio Copy V0.99 prebeta 5 from 4. May 2009

EAC 抓取日志文件从21. 九月 2011, 23:46

原抓htm1 / Michael Jackson-Dangerous

使用驱动器 :Optiarc DVD RW AD-7530A Adapter: 1 ID: 0

读取模式 : 保护

使用精确流 : 是

废除音频缓冲 : 是

使用 C2 指针 : 否

读取偏移校正 : 6

读取 Lead-In 和 Lead-Out : 否

用静音填充抓取中丢失偏移的采样 : 是

去除首尾静音块 : 否

在 CRC 计算中使用了空样本 : 否

已用接口 : Win NT 及 2000 本地 Win32 接口

间隙处理 : 未检出,故附加至前一音轨

所用输出格式 : 内部 WAV 函数

样本格式 : 44.100 Hz;16 Bit;立体声

被抓轨 CD 的 TOC

音轨 | 开始 | 长度 | 起始扇区 | 结尾扇区

--------------------------------------------------

1 | 0:00.00 | 5:43.00 | 0 | 25724

2 | 5:43.00 | 5:27.00 | 25725 | 50249

3 | 11:10.00 | 6:32.00 | 50250 | 79649

4 | 17:42.00 | 3:42.00 | 79650 | 96299

5 | 21:24.00 | 4:00.00 | 96300 | 114299

6 | 25:24.00 | 5:02.00 | 114300 | 136949

7 | 30:26.00 | 6:26.00 | 136950 | 165899

8 | 36:52.00 | 4:17.00 | 165900 | 185174

9 | 41:09.00 | 6:35.00 | 185175 | 214799

10 | 47:44.00 | 5:30.00 | 214800 | 239549

11 | 53:14.00 | 7:42.00 | 239550 | 274199

12 | 60:56.00 | 5:58.00 | 274200 | 301049

13 | 66:54.00 | 3:23.00 | 301050 | 316274

14 | 70:17.00 | 6:59.00 | 316275 | 347699

音轨 1

文件名 F:\Michael Jackson-Dangerous\Track01.wav

峰值电平 99.9 %

音轨质量 99.9 %

复制 CRC 6D2BDCD6

复制成功

音轨 2

文件名 F:\Michael Jackson-Dangerous\Track02.wav

峰值电平 99.3 %

音轨质量 100.0 %

复制 CRC ACE7905E

复制成功

音轨 3

文件名 F:\Michael Jackson-Dangerous\Track03.wav

峰值电平 100.0 %

音轨质量 100.0 %

复制 CRC 49EA8F15

复制成功

音轨 4

文件名 F:\Michael Jackson-Dangerous\Track04.wav

峰值电平 100.0 %

音轨质量 100.0 %

复制 CRC 15EDCA81

复制成功

音轨 5

文件名 F:\Michael Jackson-Dangerous\Track05.wav

峰值电平 100.0 %

音轨质量 100.0 %

复制 CRC 7476C04F

复制成功

音轨 6

文件名 F:\Michael Jackson-Dangerous\Track06.wav

峰值电平 99.9 %

音轨质量 100.0 %

复制 CRC EE63C88D

复制成功

音轨 7

文件名 F:\Michael Jackson-Dangerous\Track07.wav

峰值电平 98.9 %

音轨质量 100.0 %

复制 CRC 954F8BE4

复制成功

音轨 8

文件名 F:\Michael Jackson-Dangerous\Track08.wav

峰值电平 96.7 %

音轨质量 99.9 %

复制 CRC B16B986B

复制成功

音轨 9

文件名 F:\Michael Jackson-Dangerous\Track09.wav

峰值电平 99.9 %

音轨质量 100.0 %

复制 CRC 7F8CFF00

复制成功

音轨 10

文件名 F:\Michael Jackson-Dangerous\Track10.wav

峰值电平 92.3 %

音轨质量 100.0 %

复制 CRC D38031CF

复制成功

音轨 11

文件名 F:\Michael Jackson-Dangerous\Track11.wav

峰值电平 98.3 %

音轨质量 99.9 %

复制 CRC BFAD8DD1

复制成功

音轨 12

文件名 F:\Michael Jackson-Dangerous\Track12.wav

峰值电平 100.0 %

音轨质量 100.0 %

复制 CRC 39C6D4B8

复制成功

音轨 13

文件名 F:\Michael Jackson-Dangerous\Track13.wav

峰值电平 80.8 %

音轨质量 100.0 %

复制 CRC 2A1AF6A7

复制成功

音轨 14

文件名 F:\Michael Jackson-Dangerous\Track14.wav

峰值电平 100.0 %

音轨质量 100.0 %

复制 CRC 03A5115F

复制成功

没有错误发生

状态报告结尾

 
目前有0条回应
Comment
Trackback