分享按钮

大鲨鱼是波士顿流行交响乐团的常客

专辑名称:Summon The Heroes(召唤英雄)(美卡CD)

指 挥: John Williams

演 奏:波士顿流行交响乐团

授权提供:sony音乐娱乐股份有限公司

出 版:内蒙古文化音像出版社

发 行:美卡音像发行有限公司

版号ISRC:CN-C18-96-316-00/A.J6

发行日期:1996

音乐格式:WAV

原盘抓轨:htm1

发 布:2011年9月5日

(纯属个人喜好和珍藏片分享试听,不喜勿下。只分享试听供测试,严禁转载。如下载试听,请在24小时内自删。如喜欢此碟,请支持购买正版。)

专辑简介

此专辑是1996年亚特兰大百年奥运会的官方主题音乐专辑,由John Williams指挥波士顿流行交响乐团完成。全碟由12首气势磅礴的交响乐组成,还包括一些人声合唱。单纯播放这些音乐也依然能够加速你的心跳,使你心潮澎湃。当你哪天心情很糟糕,缺乏斗志时,坐下来好好的听上几遍吧!

我手上的这张是美卡音像引进版,为13首,最后一首是Summon the Heroes的完整版,且曲目顺序与美版不同。

部分曲目介绍

第一首Summon the Heroes是约翰·威廉姆斯为亚特兰大奥运会创作的主题曲。第二首《O Fortuna》是当今最普及的古典音乐作品,出自卡尔奥夫的”布兰诗歌”,气势宏大、让人震慑、从电视电影配乐到迈克.杰克逊的”危险之旅”演唱会,处处可见这首作品的踪迹... ... 第七首The Olympic Spirit是约翰·威廉姆斯为1988年汉城奥运会创作的主题曲。第八首Conquest of Paradise(征服天堂)是范吉利斯的名作,为电影《1492 哥伦布传》的配乐,全曲充满了史诗般的壮丽辉煌和宏伟气势,堪称九十年代最成功的电影配乐之一。第十二首Chariots of Fire (烈火战车)是范吉利斯的另一着名作品,为1982年第54届奥斯卡最佳影片《烈火战车》的同名配乐,本曲亦获得第54届奥斯卡最佳电影配乐奖。相信大家都曾在电视或者广播中听过这首曲子的各种版本。本专辑中收录这两首范吉利斯的作品均为交响乐版。

专辑曲目:

1. JOHN WILLIAMS (b. 1932): Summon the Heroes - Short Version (for Tim Morrison) (3:39)

(Written for the Centennial Celebration of the Modern Olympic Games, Atlanta, Georgia, July 19, 1996)

FIRST RECORDING

2. CARL ORFF (1895-1982): O Fortuna* from "Carmina Burana" (2:39)

3. LEO ARNAUD (1904-1991) and John Williams: Bugler's Dream/Olympic Fanfare and Theme(4:31)

(“Bugler's Dream” introduced during the 1968 Olympic Games, Grenoble)

(“Olympic Fanfare and Theme” written for the 1984 Olympic Games, Los Angeles)

4. MIKIS THEODORAKIS (b. 1925): Ode to Zeus* from "Canto Olympico" (3:42)

(Commissioned By The International Olympic Committee For The 1992 Olympic Games, Barcelona)

5. MICHAEL TORKE (b. 1961): Javelin (8:53)

(Commissioned by the Atlanta Committee for the 1996 Olympic Games Cultural Olympiad

in celebration of the Atlanta Symphony Orchestra's 50th Anniversary)

6. LEONARD BERNSTEIN (1918-1990): Olympic Hymn* (5:22)

(Written for the 1981 International Olympic Congress, Baden-Baden)

Text: Günter Kunert

FIRST RECORDING

7. JOHN WILLIAMS: The Olympic Spirit (4:06)

(Written especially for the NBC Sports Division in celebration of the 1988 Olympics, Seoul)

FIRST RECORDING

8. VANGELIS (b. 1943): Conquest of Paradise (Theme)* (3:38)

9. DMITRI SHOSTAKOVICH (1906-1975): Festive Overture, Op. 96 (6:19)

(Theme of the 1980 Olympic Games, Moscow)

10. JOSEF SUK (1874-1935): Toward a New Life (5:54)

(Silver medal-winning composition at the 1932 Olympic Games, Los Angeles)

11. MIKLóS RóZSA (1907-1995): Parade of Charioteers from "Ben Hur" (3:49)

12. VANGELIS: Chariots of Fire (Theme) (3:38)

Randy Kerber, Synthesizer

(Featured in the 1981 Academy Award-winning film

and performed at the 1984 Olympic Games, Sarajevo)

13. JOHN WILLIAMS (b. 1932): Summon the Heroes - Full Version (for Tim Morrison) (6:17)

http://dl.dbank.com/c02czgn94o

解码:htm1

Exact Audio Copy V0.99 prebeta 5 from 4. May 2009

EAC 抓取日志文件从20. 八月 2011, 11:19

John Williams-原抓htm1 / Summon The Heroes(召唤英雄)

使用驱动器 :ASUS DVD-E818AT Adapter: 2 ID: 1

读取模式 : 保护

使用精确流 : 是

废除音频缓冲 : 是

使用 C2 指针 : 否

读取偏移校正 : 6

读取 Lead-In 和 Lead-Out : 否

用静音填充抓取中丢失偏移的采样 : 是

去除首尾静音块 : 否

在 CRC 计算中使用了空样本 : 否

已用接口 : Win NT 及 2000 本地 Win32 接口

间隙处理 : 未检出,故附加至前一音轨

所用输出格式 : 内部 WAV 函数

样本格式 : 44.100 Hz;16 Bit;立体声

被抓轨 CD 的 TOC

音轨 | 开始 | 长度 | 起始扇区 | 结尾扇区

--------------------------------------------------

1 | 0:00.00 | 3:38.00 | 0 | 16349

2 | 3:38.00 | 2:38.37 | 16350 | 28236

3 | 6:16.37 | 4:30.50 | 28237 | 48536

4 | 10:47.12 | 3:42.00 | 48537 | 65186

5 | 14:29.12 | 8:53.50 | 65187 | 105211

6 | 23:22.62 | 5:21.50 | 105212 | 129336

7 | 28:44.37 | 4:08.25 | 129337 | 147961

8 | 32:52.62 | 3:39.13 | 147962 | 164399

9 | 36:32.00 | 6:19.00 | 164400 | 192824

10 | 42:51.00 | 5:54.37 | 192825 | 219411

11 | 48:45.37 | 3:52.00 | 219412 | 236811

12 | 52:37.37 | 3:34.50 | 236812 | 252911

13 | 56:12.12 | 6:17.25 | 252912 | 281211

音轨 1

文件名 G:\CD抓取29\Summon The Heroes(召唤英雄)\Track01.wav

峰值电平 99.4 %

音轨质量 100.0 %

复制 CRC 52DCD2ED

复制成功

音轨 2

文件名 G:\CD抓取29\Summon The Heroes(召唤英雄)\Track02.wav

峰值电平 99.4 %

音轨质量 100.0 %

复制 CRC FFD799AD

复制成功

音轨 3

文件名 G:\CD抓取29\Summon The Heroes(召唤英雄)\Track03.wav

峰值电平 99.4 %

音轨质量 99.9 %

复制 CRC 802449C5

复制成功

音轨 4

文件名 G:\CD抓取29\Summon The Heroes(召唤英雄)\Track04.wav

峰值电平 90.9 %

音轨质量 99.9 %

复制 CRC F58B2EBC

复制成功

音轨 5

文件名 G:\CD抓取29\Summon The Heroes(召唤英雄)\Track05.wav

峰值电平 99.4 %

音轨质量 100.0 %

复制 CRC 340F3CAB

复制成功

音轨 6

文件名 G:\CD抓取29\Summon The Heroes(召唤英雄)\Track06.wav

峰值电平 94.5 %

音轨质量 100.0 %

复制 CRC 88C003CE

复制成功

音轨 7

文件名 G:\CD抓取29\Summon The Heroes(召唤英雄)\Track07.wav

峰值电平 99.4 %

音轨质量 100.0 %

复制 CRC 760A17B0

复制成功

音轨 8

文件名 G:\CD抓取29\Summon The Heroes(召唤英雄)\Track08.wav

峰值电平 96.8 %

音轨质量 99.9 %

复制 CRC 081909DC

复制成功

音轨 9

文件名 G:\CD抓取29\Summon The Heroes(召唤英雄)\Track09.wav

峰值电平 99.4 %

音轨质量 99.9 %

复制 CRC BCB7D959

复制成功

音轨 10

文件名 G:\CD抓取29\Summon The Heroes(召唤英雄)\Track10.wav

峰值电平 99.4 %

音轨质量 100.0 %

复制 CRC 4E216935

复制成功

音轨 11

文件名 G:\CD抓取29\Summon The Heroes(召唤英雄)\Track11.wav

峰值电平 97.4 %

音轨质量 100.0 %

复制 CRC 22331C9B

复制成功

音轨 12

文件名 G:\CD抓取29\Summon The Heroes(召唤英雄)\Track12.wav

峰值电平 99.4 %

音轨质量 100.0 %

复制 CRC 4CBF1B50

复制成功

音轨 13

文件名 G:\CD抓取29\Summon The Heroes(召唤英雄)\Track13.wav

峰值电平 99.4 %

音轨质量 100.0 %

复制 CRC 862C7265

复制成功

没有错误发生

状态报告结尾

 
目前有0条回应
Comment
Trackback