分享按钮

Exact Audio Copy V0.99 prebeta 5 from 4. May 2009

EAC 抓取日志文件从26. 二月 2011, 3:02

Mariah Carey / MARIAH CAREY

使用驱动器 :hp DVD-ROM TS-H353C Adapter: 1 ID: 0

读取模式 : 保护

使用精确流 : 是

废除音频缓冲 : 是

使用 C2 指针 : 否

读取偏移校正 : 6

读取 Lead-In 和 Lead-Out : 否

用静音填充抓取中丢失偏移的采样 : 是

去除首尾静音块 : 否

在 CRC 计算中使用了空样本 : 是

已用接口 : Win NT 及 2000 本地 Win32 接口

所用输出格式 : 内部 WAV 函数

样本格式 : 44.100 Hz;16 Bit;立体声

被抓轨 CD 的 TOC

音轨 | 开始 | 长度 | 起始扇区 | 结尾扇区

--------------------------------------------------

1 | 0:00.00 | 4:16.50 | 0 | 19249

2 | 4:16.50 | 3:43.50 | 19250 | 36024

3 | 8:00.25 | 3:51.12 | 36025 | 53361

4 | 11:51.37 | 4:15.13 | 53362 | 72499

5 | 16:06.50 | 3:41.25 | 72500 | 89099

6 | 19:48.00 | 3:23.62 | 89100 | 104386

7 | 23:11.62 | 4:32.55 | 104387 | 124841

8 | 27:44.42 | 3:45.70 | 124842 | 141786

9 | 31:30.37 | 3:46.38 | 141787 | 158774

10 | 35:17.00 | 4:20.12 | 158775 | 178286

11 | 39:37.12 | 4:12.43 | 178287 | 197229

12 | 43:49.55 | 2:47.70 | 197230 | 209824

范围状态及错误

已选择范围

文件名 C:\Users\PETER\Desktop\自压CD\Mariah Carey - MARIAH CAREY\Mariah Carey - MARIAH CAREY.wav

峰值电平 84.0 %

范围质量 99.8 %

复制 CRC D3A9B2EF

复制成功

没有错误发生

AccurateRip 概要

音轨 1 无法精确校验 (确认 1) [EAFEABFC], AccurateRip 返回 [23BBB847]

音轨 2 无法精确校验 (确认 1) [BA84AC59], AccurateRip 返回 [B339A881]

音轨 3 无法精确校验 (确认 1) [5EF8EC5B], AccurateRip 返回 [14B551CB]

音轨 4 无法精确校验 (确认 1) [D2960178], AccurateRip 返回 [16A4EADB]

音轨 5 无法精确校验 (确认 1) [308F0FDB], AccurateRip 返回 [B064D3DA]

音轨 6 无法精确校验 (确认 1) [C6C52CA6], AccurateRip 返回 [004F416B]

音轨 7 无法精确校验 (确认 1) [C444D9C9], AccurateRip 返回 [D9AA90CC]

音轨 8 无法精确校验 (确认 1) [97072F65], AccurateRip 返回 [8221FEE6]

音轨 9 无法精确校验 (确认 1) [95DD30C6], AccurateRip 返回 [807ECBE2]

音轨 10 无法精确校验 (确认 1) [C05F8605], AccurateRip 返回 [B3B626EA]

音轨 11 无法精确校验 (确认 1) [8940BE1F], AccurateRip 返回 [CAD4F5B7]

音轨 12 无法精确校验 (确认 1) [888DB3CC], AccurateRip 返回 [8BA827C9]

没有音轨被精确验证

你可能遇到在数据库中的一词多义

状态报告结尾

下载地址:

http://u.115.com/file/dns8wsei#

Mariah_Carey_-_MARIAH_CAREY.rar

 
目前有0条回应
Comment
Trackback